[Login] or [Signup]
Login
Username:
Password:
[Signup]
[Recover Account]


Poll


You must be logged in to view polls



Torrent Details For " Yamla Pagla Deewana Phir Se... (2018)Hindi Movie - 2CD - HDRip[x264 - AC3(5.1Ch)]"

Yamla Pagla Deewana Phir Se... (2018)Hindi Movie - 2CD - HDRip[x264 - AC3(5.1Ch)]

Download this torrent | Magnet Download
Health:
Seeds: 7
Leechers: 31
Completed: 39 
Last Checked: 18-11-2018 06:23:48
External Torrent
Update Stats
Download Magnet


Poster


iMDB
Title: Yamla Pagla Deewana Phir Se
Year: 2018
Runtime: 145 minutes
Language: Hindi
All Genres: Comedy
Director: Navaniat Singh
Writing By: Dheeraj Rattan,Bunty Rathore, Vankush Arora ,
Produced By: Akshay Gada,Dhaval Gada,Kushal Gada,Neeraj Gala,Reshmaa Kadakia,Ginny Khanuja,Aarushi Malhotra,Rupesh Mali,Kuldeep Rathore,Suniel S. Saini,Kamayani Punia Sharma,
Music: Raju Singh
Cast:
Dharmendra as Parmar
Sunny Deol as Puran
Bobby Deol as Kala
Shatrughan Sinha as Special Appearance
Kriti Kharbanda as Chikoo
Asrani as Nanu
Satish Kaushik as Bedi
Binnu Dhillon as Billa
Salman Khan as Mastana
Sharat Saxena as Judge Sunil Parekh


Watch-Free-HD     Download

Details
Name: Yamla Pagla Deewana Phir Se... (2018)Hindi Movie - 2CD - HDRip[x264 - AC3(5.1Ch)]
Description:
    Yamla Pagla Deewana Phir Se... (2018)Hindi Movie -
2CD - HDRip[x264 - AC3(5.1Ch)]
 






General
Format                                   : Matroska
Format version                           : Version 4
File size                                : 1.40 GiB
Duration                                 : 2 h 39 min

Video
ID                                       : 1
Format                                   : AVC
Format/Info                              : Advanced Video Codec
Format profile                           : [email protected]
Format settings                          : CABAC / 4 Ref Frames
Format settings, CABAC                   : Yes
Format settings, RefFrames               : 4 frames
Codec ID                                 : V_MPEG4/ISO/AVC
Duration                                 : 2 h 39 min
Bit rate                                 : 1 062 kb/s
Width                                    : 720 pixels
Height                                   : 304 pixels
Display aspect ratio                     : 2.35:1
Frame rate mode                          : Constant
Frame rate                               : 25.000 FPS
Color space                              : YUV
Chroma subsampling                       : 4:2:0
Bit depth                                : 8 bits
Scan type                                : Progressive
Bits/(Pixel*Frame)                       : 0.194
Stream size                              : 1.19 GiB (85%)

Audio
ID                                       : 2
Format                                   : AC-3
Format/Info                              : Audio Coding 3
Commercial name                          : Dolby Digital
Codec ID                                 : A_AC3
Duration                                 : 2 h 39 min
Bit rate mode                            : Constant
Bit rate                                 : 192 kb/s
Channel(s)                               : 6 channels
Channel layout                           : L R C LFE Ls Rs
Sampling rate                            : 48.0 kHz
Stream size                              : 219 MiB (15%)


Thumbnail



Category:Movies > Bollywood
Lang:Hindi
Total Size:1.40 GB
Info Hash:0ee6acbf9ef9aa197f96e0e6ff3ffeb3c54462a7
Added By:CyberTron
Date Added:17-11-2018 06:37:44
Views:322
Hits:28

Download Torrent

Ratings:Not Yet Rated (Log in to rate it)

  


Tracker:
udp://tracker.trackerfix.com:80/announce


File List: 


Comments

No comments still posted

Powered by 10 Hamsters v2-svn -|- Page Generated In 1.178050 secs.
-|- RSS FEED
Theme By: Nikkbu