[Login] or [Signup]
Login
Username:
Password:
[Signup]
[Recover Account]


Poll


You must be logged in to view polls



Torrent Details For "Westwood Punk Icon Activist.2018.1080p.AMZN.WEB-DL.x264.AAC.-.Hon3yHD"

Westwood Punk Icon Activist.2018.1080p.AMZN.WEB-DL.x264.AAC.-.Hon3yHD

Download this torrent | Magnet Download
Health:
Seeds: 0
Leechers: 0
Completed:
Last Checked: 17-11-2018 06:01:02
External Torrent
Update Stats
Download Magnet


Poster
No poster


Watch-Free-HD     Download

Details
Name:Westwood Punk Icon Activist.2018.1080p.AMZN.WEB-DL.x264.AAC.-.Hon3yHD
Description:




     

Format                      : Matroska
Format version              : Version 4
File size                   : 1.55 GiB
Duration                    : 1 h 19 min
Overall bit rate            : 2 777 kb/s
Movie name                  : Westwood Punk Icon Activist.2018.1080p.AMZN.WEB-DL.x264.AAC.-.Hon3yHD

Video
ID                          : 1
Format                      : AVC
Format/Info                 : Advanced Video Codec
Format profile              : [email protected]
Format settings             : CABAC / 8 Ref Frames
Format settings, CABAC      : Yes
Format settings, ReFrames   : 8 frames
Codec ID                    : V_MPEG4/ISO/AVC
Duration                    : 1 h 19 min
Bit rate                    : 2 500 kb/s
Width                       : 1 920 pixels
Height                      : 1 080 pixels
Display aspect ratio        : 16:9
Frame rate mode             : Constant
Frame rate                  : 25.000 FPS
Color space                 : YUV
Chroma subsampling          : 4:2:0
Bit depth                   : 8 bits
Scan type                   : Progressive

Audio
ID                          : 2
Format                      : AAC LC
Format/Info                 : Advanced Audio Codec Low Complexity
Codec ID                    : A_AAC-2
Duration                    : 1 h 19 min
Bit rate                    : 332 kb/s
Channel(s)                  : 6 channels
Channel layout              : C L R Ls Rs LFE
Sampling rate               : 48.0 kHz
Frame rate                  : 46.875 FPS (1024 SPF)
Compression mode            : Lossy
Delay relative to video     : 9 ms
Stream size                 : 190 MiB (12%)
Title                       : Hon3yHD.net

Text
ID                          : 3
Format                      : UTF-8
Codec ID                    : S_TEXT/UTF8
Codec ID/Info               : UTF-8 Plain Text
Duration                    : 1 h 17 min
Bit rate                    : 81 b/s
Count of elements           : 1127
Stream size                 : 45.9 KiB (0%)
Title                       : Hon3yHD.net
Language                    : English

For more Exclusive & Quality Stuff Visit :: Hon3yHD

 

Category:Movies > HDRips
Lang:English  English
Total Size:1.56 GB
Info Hash:6feeee5ef5cb95eeef3699f938dada82e6eea284
Added By:Hon3y
Date Added:17-11-2018 06:01:02
Views:60
Hits:0

Download Torrent

Ratings:Not Yet Rated (Log in to rate it)


Tracker:
udp://tracker.coppersurfer.tk:6969/announce


File List: 


Comments

No comments still posted

Powered by 10 Hamsters v2-svn -|- Page Generated In 0.623133 secs.
-|- RSS FEED
Theme By: Nikkbu