[Login] or [Signup]
Login
Username:
Password:
[Signup]
[Recover Account]


Poll


You must be logged in to view polls



Torrent Details For "Mitron 2018 Hindi 720p HDRip x264 5.1 AAC ESub { TaRa }.mkv"

Mitron 2018 Hindi 720p HDRip x264 5.1 AAC ESub { TaRa }.mkv

Download this torrent | Magnet Download
Health:
Seeds: 117
Leechers: 10
Completed: 3,958 
Last Checked: 14-11-2018 22:22:25
External Torrent
Update Stats
Download Magnet


Poster


iMDB
Title: Mitron
Year: 2018
Language: Hindi
All Genres: Comedy
Director: Nitin Kakkar
Writing By: Tharun Bhascker Dhaassyam,Sharib Hashmi,
Produced By: Deesha Dhanuka,Vikram Malhotra,
Music: Sameer Uddin
Cast:
Jackky Bhagnani as Jai
Pratik Gandhi as Raunak
Kritika Kamra as Avni
Shivam Parekh as Deepu
Neeraj Sood as Father


Watch-Free-HD     Download

Details
Name:Mitron 2018 Hindi 720p HDRip x264 5.1 AAC ESub { TaRa }.mkv
Description:

Mitron 2018 Hindi 720p HDRip x264 5.1 AAC ESub { TaRa }.mkv
 

===================================================================
General
Complete name               : Mitron 2018 Hindi 720p HDRip x264 5.1 AAC ESub { TaRa }.mkv
Format                      : Matroska
Format version              : Version 4
File size                   : 1.27 GiB
Duration                    : 1 h 56 min
Overall bit rate            : 1 559 kb/s
===================================================================
Video
ID                          : 1
Format                      : AVC
Format/Info                 : Advanced Video Codec
Format profile              : [email protected]
Format settings             : CABAC / 4 Ref Frames
Format settings, CABAC      : Yes
Format settings, ReFrames   : 4 frames
Codec ID                    : V_MPEG4/ISO/AVC
Duration                    : 1 h 56 min
Bit rate                    : 1 428 kb/s
Width                       : 1 280 pixels
Height                      : 544 pixels
Display aspect ratio        : 2.35:1
Frame rate mode             : Constant
Frame rate                  : 24.000 FPS
Color space                 : YUV
Chroma subsampling          : 4:2:0
Bit depth                   : 8 bits
Scan type                   : Progressive
Bits/(Pixel*Frame)          : 0.085
Stream size                 : 1.16 GiB (92%)
Title                       : .....::::: TaRa :::::.....
Language                    : Hindi
Default                     : Yes
Forced                      : No
===================================================================
Audio
ID                          : 2
Format                      : AAC LC
Format/Info                 : Advanced Audio Codec Low Complexity
Codec ID                    : A_AAC-2
Duration                    : 1 h 56 min
Bit rate                    : 128 kb/s
Channel(s)                  : 6 channels
Channel layout              : C L R Ls Rs LFE
Sampling rate               : 44.1 kHz
Frame rate                  : 43.066 FPS (1024 SPF)
Compression mode            : Lossy
Stream size                 : 107 MiB (8%)
Title                       : .....::::: TaRa :::::.....
Language                    : Hindi
Default                     : Yes
Forced                      : No
===================================================================
Text
ID                          : 3
Format                      : UTF-8
Codec ID                    : S_TEXT/UTF8
Codec ID/Info               : UTF-8 Plain Text
Duration                    : 1 h 55 min
Bit rate                    : 72 b/s
Count of elements           : 2102
Stream size                 : 61.3 KiB (0%)
Title                       : .....::::: TaRa :::::.....
Language                    : Hindi
Default                     : Yes
Forced                      : No
===================================================================


 
 
 
 
 
 
 
 
 
 
 
 
 
 
 












 



Category:Movies > Bollywood
Lang:Hindi
Total Size:1.27 GB
Info Hash:e914e6958ddec82e2125bd558837f902073393e3
Added By:SkTaRa
Date Added:09-11-2018 14:15:27
Views:3,562
Hits:727

Download Torrent

Ratings:Not Yet Rated (Log in to rate it)

  


Tracker:
udp://tracker.coppersurfer.tk:6969/announce


File List: 


Comments

No comments still posted

Powered by 10 Hamsters v2-svn -|- Page Generated In 3.218589 secs.
-|- RSS FEED
Theme By: Nikkbu