[Login] or [Signup]
Login
Username:
Password:
[Signup]
[Recover Account]


Poll


You must be logged in to view polls



Torrent Details For "Paltan (2018) Hindi 720p WEB-HD AVC AAC-Sun George"

Paltan (2018) Hindi 720p WEB-HD AVC AAC-Sun George

Download this torrent | Magnet Download
Health:
Seeds: 208
Leechers: 215
Completed: 749 
Last Checked: 10-11-2018 14:56:50
External Torrent
Update Stats
Download Magnet


Poster


iMDB
Title: Hamari paltan
Year: 2018
Language: Hindi
Director: Jainendra Jigyasu

Cast:
Manoj Bakshi as


Watch-Free-HD     Download

Details
Name:Paltan (2018) Hindi 720p WEB-HD AVC AAC-Sun George
Description:
Paltan (2018) Hindi 720p WEB-HD AVC AAC-Sun George







===================================================================

General
Format                                   : Matroska
Format version                           : Version 4 / Version 2
File size                                : 1.73 GiB
Duration                                 : 2 h 27 min
Overall bit rate                         : 1 676 kb/s
Movie name : Paltan (2018) Hindi 720p WEB-HD AVC AAC-Sun George

===================================================================

Video
ID                                       : 1
Format                                   : AVC
Format/Info                              : Advanced Video Codec
Format profile                           : [email protected]
Format settings                          : CABAC / 4 Ref Frames
Format settings, CABAC                   : Yes
Format settings, RefFrames               : 4 frames
Codec ID                                 : V_MPEG4/ISO/AVC
Duration                                 : 2 h 27 min
Bit rate                                 : 1 405 kb/s
Width                                    : 1 280 pixels
Height                                   : 720 pixels
Display aspect ratio                     : 16:9
Frame rate mode                          : Constant
Frame rate                               : 25.000 FPS
Color space                              : YUV
Chroma subsampling                       : 4:2:0
Bit depth                                : 8 bits
Scan type                                : Progressive
Bits/(Pixel*Frame)                       : 0.061
Stream size                              : 1.45 GiB (84%)
Title                                    : Sun George

===================================================================

Audio
ID                                       : 2
Format                                   : AAC
Format/Info                              : Advanced Audio Codec
Format profile                           : LC
Codec ID                                 : A_AAC-2
Duration                                 : 2 h 27 min
Bit rate                                 : 265 kb/s
Channel(s)                               : 2 channels
Channel positions                        : Front: L R
Sampling rate                            : 48.0 kHz
Frame rate                               : 46.875 FPS (1024 SPF)
Compression mode                         : Lossy
Stream size                              : 284 MiB (16%)
Title                                    : Sun George
Writing library                          : Lavc57.42.100 aac
Language                                 : Hindi
Default                                  : Yes
Forced                                   : No




 

 

 

 

 

 

 

 

 

 
Category:Movies > Bollywood
Lang:Hindi
Total Size:1.75 GB
Info Hash:9f505ef52c8342d5c252fac6c44333def1bcca7d
Added By:sungeorge
Date Added:09-11-2018 12:53:45
Views:265
Hits:38

Download Torrent

Ratings:Not Yet Rated (Log in to rate it)

  


Tracker:
udp://tracker.publicbt.com:80/announce


File List: 



NFO:

Comments

No comments still posted

Powered by 10 Hamsters v2-svn -|- Page Generated In 1.043871 secs.
-|- RSS FEED
Theme By: Nikkbu